动漫花园资源网logo

 
 

会员头像

发佈人:jackieliiy

订阅发佈人:

发佈组LOGO

所属发佈组:魔星字幕团

订阅发佈组:

【2020日影】[MagicStar] 五代友厚 / 天外者 [WEBDL] [1080p] [AMZN]【生】【附日字】

简介: 

HD 1080p from Prime Video.
Use CBR bitrate mode. Japanese subtitles added.

alt text

alt text

General Unique ID                      : 277415178938139351602516341633747998498 (0xD0B43852DDF5E3F013EF9155C7D35722) Complete name                  : Tengaramon.2020.1080p.AMZN.WEB-DL.DDP5.1.H.264-MagicStar.mkv Format                         : Matroska Format version                 : Version 4 File size                      : 4.67 GiB Duration                       : 1 h 49 min Overall bit rate mode          : Constant Overall bit rate               : 6 076 kb/s Encoded date                   : UTC 2022-08-05 20:49:38 Writing application            : mkvmerge v50.0.0 ('Awakenings') 64-bit Writing library                : libebml v1.4.0 + libmatroska v1.6.2 Cover                          : Yes Attachments                    : cover.png  Video ID                             : 1 Format                         : AVC Format/Info                    : Advanced Video Codec Format profile                 : [email protected] Format settings                : CABAC / 4 Ref Frames Format settings, CABAC         : Yes Format settings, Reference fra : 4 frames Codec ID                       : V_MPEG4/ISO/AVC Duration                       : 1 h 49 min Bit rate mode                  : Constant Bit rate                       : 5 432 kb/s Nominal bit rate               : 10 000 kb/s Width                          : 1 920 pixels Height                         : 800 pixels Display aspect ratio           : 2.40:1 Frame rate mode                : Constant Frame rate                     : 23.976 (24000/1001) FPS Color space                    : YUV Chroma subsampling             : 4:2:0 Bit depth                      : 8 bits Scan type                      : Progressive Bits/(Pixel*Frame)             : 0.147 Stream size                    : 4.17 GiB (89%) Default                        : Yes Forced                         : No Color range                    : Limited Color primaries                : BT.709 Transfer characteristics       : BT.709 Matrix coefficients            : BT.709  Audio ID                             : 2 Format                         : E-AC-3 Format/Info                    : Enhanced AC-3 Commercial name                : Dolby Digital Plus Codec ID                       : A_EAC3 Duration                       : 1 h 49 min Bit rate mode                  : Constant Bit rate                       : 640 kb/s Channel(s)                     : 6 channels Channel layout                 : L R C LFE Ls Rs Sampling rate                  : 48.0 kHz Frame rate                     : 31.250 FPS (1536 SPF) Compression mode               : Lossy Stream size                    : 503 MiB (11%) Language                       : Japanese Service kind                   : Complete Main Default                        : Yes Forced                         : No

会员专用连接: 【2020日影】[MagicStar] 五代友厚 / 天外者 [WEBDL] [1080p] [AMZN]【生】【附日字】

Magnet连接: magnet:?xt=urn:btih:4CURN5XGJTJK24HFUE7KOEZT4GRTVE52

Magnet连接typeII: magnet:?xt=urn:btih:e0a916f6e64cd2ad70e5a13ea71333e1a33a93ba

PikPak载点: 保存至pikpak ?

弹幕播放连接: ddplay:magnet:?xt=urn:btih:4CURN5XGJTJK24HFUE7KOEZT4GRTVE52 播放器官方下载地址

外部搜索连接: 从谷歌搜索资源种子


  • mkv[MagicStar] Tengaramon 2020 [WEBDL] [1080p] [AMZN] [JPN_SUB]/Tengaramon.2020.1080p.AMZN.WEB-DL.DDP5.1.H.264-MagicStar.mkv 4.7GB
  • srt[MagicStar] Tengaramon 2020 [WEBDL] [1080p] [AMZN] [JPN_SUB]/Tengaramon.2020.1080p.AMZN.WEB-DL.DDP5.1.H.264-MagicStar.srt 77.8KB

***查看评论*** 请注意评论内容可能包含剧透

Processed in 0.001 second(s), 2 queries
Powered by tedmind.com Version: 1.8.1