动漫花园资源网logo

 
 

会员头像

发佈人:jackieliiy

订阅发佈人:

发佈组LOGO

所属发佈组:魔星字幕团

订阅发佈组:

【2022日影】[MagicStar] 失踪 / さがす [WEBDL] [1080p] [AMZN]【生】

简介: 

HD 1080p from Prime Video.
Use CBR bitrate mode.

alt text

alt text

General Unique ID                      : 155311277588910424150269482924586394692 (0x74D7DD307A243E68E5A7992C04996444) Complete name                  : Sagasu.2022.1080p.AMZN.WEB-DL.DDP5.1.H.264-MagicStar.mkv Format                         : Matroska Format version                 : Version 4 File size                      : 4.62 GiB Duration                       : 2 h 3 min Overall bit rate mode          : Constant Overall bit rate               : 5 362 kb/s Encoded date                   : UTC 2022-08-05 20:46:51 Writing application            : mkvmerge v50.0.0 ('Awakenings') 64-bit Writing library                : libebml v1.4.0 + libmatroska v1.6.2 Cover                          : Yes Attachments                    : cover.png  Video ID                             : 1 Format                         : AVC Format/Info                    : Advanced Video Codec Format profile                 : [email protected] Format settings                : CABAC / 4 Ref Frames Format settings, CABAC         : Yes Format settings, Reference fra : 4 frames Codec ID                       : V_MPEG4/ISO/AVC Duration                       : 2 h 3 min Bit rate mode                  : Constant Bit rate                       : 4 720 kb/s Nominal bit rate               : 10 000 kb/s Width                          : 1 920 pixels Height                         : 800 pixels Display aspect ratio           : 2.40:1 Frame rate mode                : Constant Frame rate                     : 23.976 (24000/1001) FPS Color space                    : YUV Chroma subsampling             : 4:2:0 Bit depth                      : 8 bits Scan type                      : Progressive Bits/(Pixel*Frame)             : 0.128 Stream size                    : 4.06 GiB (88%) Default                        : Yes Forced                         : No Color range                    : Limited Color primaries                : BT.709 Transfer characteristics       : BT.709 Matrix coefficients            : BT.709  Audio ID                             : 2 Format                         : E-AC-3 Format/Info                    : Enhanced AC-3 Commercial name                : Dolby Digital Plus Codec ID                       : A_EAC3 Duration                       : 2 h 3 min Bit rate mode                  : Constant Bit rate                       : 640 kb/s Channel(s)                     : 6 channels Channel layout                 : L R C LFE Ls Rs Sampling rate                  : 48.0 kHz Frame rate                     : 31.250 FPS (1536 SPF) Compression mode               : Lossy Stream size                    : 564 MiB (12%) Language                       : Japanese Service kind                   : Complete Main Default                        : Yes Forced                         : No

会员专用连接: 【2022日影】[MagicStar] 失踪 / さがす [WEBDL] [1080p] [AMZN]【生】

Magnet连接: magnet:?xt=urn:btih:4ONKJW642FC4CKLYJUJPXE2THF6AFE2D

Magnet连接typeII: magnet:?xt=urn:btih:e39aa4dbdcd145c129784d12fb9353397c029343

PikPak载点: 保存至pikpak ?

弹幕播放连接: ddplay:magnet:?xt=urn:btih:4ONKJW642FC4CKLYJUJPXE2THF6AFE2D 播放器官方下载地址

外部搜索连接: 从谷歌搜索资源种子


  • mkv[MagicStar] Sagasu 2022 [WEBDL] [1080p] [AMZN]/Sagasu.2022.1080p.AMZN.WEB-DL.DDP5.1.H.264-MagicStar.mkv 4.6GB

***查看评论*** 请注意评论内容可能包含剧透

Processed in 0.001 second(s), 2 queries
Powered by tedmind.com Version: 1.8.1