动漫花园资源网logo

 
 

会员头像

发佈人:jackieliiy

订阅发佈人:

发佈组LOGO

所属发佈组:魔星字幕团

订阅发佈组:

【2021日影】[MagicStar] Brave -群青战记- / ブレイブ -群青戦记- [WEBDL] [1080p] [AMZN]【生】

简介: 

HD 1080p from Prime Video.
Use CBR bitrate mode.

alt text

alt text

General Unique ID                      : 110665865593971855422376565485385170279 (0x5341786E8D6CAB51BF72711421463D67) Complete name                  : Brave.Gunjou.Senki.2021.1080p.AMZN.WEB-DL.DDP5.1.H.264-MagicStar.mkv Format                         : Matroska Format version                 : Version 4 File size                      : 5.88 GiB Duration                       : 1 h 55 min Overall bit rate mode          : Constant Overall bit rate               : 7 281 kb/s Encoded date                   : UTC 2022-08-06 04:31:47 Writing application            : mkvmerge v50.0.0 ('Awakenings') 64-bit Writing library                : libebml v1.4.0 + libmatroska v1.6.2 Cover                          : Yes Attachments                    : cover.png  Video ID                             : 1 Format                         : AVC Format/Info                    : Advanced Video Codec Format profile                 : [email protected] Format settings                : CABAC / 4 Ref Frames Format settings, CABAC         : Yes Format settings, Reference fra : 4 frames Codec ID                       : V_MPEG4/ISO/AVC Duration                       : 1 h 55 min Bit rate mode                  : Constant Bit rate                       : 6 637 kb/s Nominal bit rate               : 10 000 kb/s Width                          : 1 920 pixels Height                         : 800 pixels Display aspect ratio           : 2.40:1 Frame rate mode                : Constant Frame rate                     : 23.976 (24000/1001) FPS Color space                    : YUV Chroma subsampling             : 4:2:0 Bit depth                      : 8 bits Scan type                      : Progressive Bits/(Pixel*Frame)             : 0.180 Stream size                    : 5.36 GiB (91%) Default                        : Yes Forced                         : No Color range                    : Limited Color primaries                : BT.709 Transfer characteristics       : BT.709 Matrix coefficients            : BT.709  Audio ID                             : 2 Format                         : E-AC-3 Format/Info                    : Enhanced AC-3 Commercial name                : Dolby Digital Plus Codec ID                       : A_EAC3 Duration                       : 1 h 55 min Bit rate mode                  : Constant Bit rate                       : 640 kb/s Channel(s)                     : 6 channels Channel layout                 : L R C LFE Ls Rs Sampling rate                  : 48.0 kHz Frame rate                     : 31.250 FPS (1536 SPF) Compression mode               : Lossy Stream size                    : 529 MiB (9%) Language                       : Japanese Service kind                   : Complete Main Default                        : Yes Forced                         : No

会员专用连接: 【2021日影】[MagicStar] Brave -群青战记- / ブレイブ -群青戦记- [WEBDL] [1080p] [AMZN]【生】

Magnet连接: magnet:?xt=urn:btih:F2ALVTVUGELNADOHR5JGBA47LWI4NE55

Magnet连接typeII: magnet:?xt=urn:btih:2e80baceb43116d00dc78f5260839f5d91c693bd

PikPak载点: 保存至pikpak ?

弹幕播放连接: ddplay:magnet:?xt=urn:btih:F2ALVTVUGELNADOHR5JGBA47LWI4NE55 播放器官方下载地址

外部搜索连接: 从谷歌搜索资源种子


  • mkv[MagicStar] Brave -Gunjou Senki- 2021 [WEBDL] [1080p] [AMZN]/Brave.Gunjou.Senki.2021.1080p.AMZN.WEB-DL.DDP5.1.H.264-MagicStar.mkv 5.9GB

***查看评论*** 请注意评论内容可能包含剧透

Processed in 0.001 second(s), 2 queries
Powered by tedmind.com Version: 1.8.1