动漫花园资源网logo

 
 

会员头像

发佈人:jackieliiy

订阅发佈人:

发佈组LOGO

所属发佈组:魔星字幕团

订阅发佈组:

【2022日影】[MagicStar] 夜念黎明 / ある夜、彼女は明け方を想う [WEBDL] [1080p] [AMZN]【生】

简介: 

HD 1080p from Prime Video.
Use CBR bitrate mode.

alt text

alt text

General Unique ID                      : 13550422489556164483858816011499738909 (0xA31B768D1DF63F089820C368108171D) Complete name                  : Aru.Yoru.Kanojo.wa.Akegata.wo.Omou.2022.1080p.AMZN.WEB-DL.DDP2.0.H.264-MagicStar.mkv Format                         : Matroska Format version                 : Version 4 File size                      : 2.51 GiB Duration                       : 45 min 2 s Overall bit rate mode          : Constant Overall bit rate               : 7 969 kb/s Encoded date                   : UTC 2022-08-06 03:44:56 Writing application            : mkvmerge v50.0.0 ('Awakenings') 64-bit Writing library                : libebml v1.4.0 + libmatroska v1.6.2 Cover                          : Yes Attachments                    : cover.png  Video ID                             : 1 Format                         : AVC Format/Info                    : Advanced Video Codec Format profile                 : [email protected] Format settings                : CABAC / 4 Ref Frames Format settings, CABAC         : Yes Format settings, Reference fra : 4 frames Codec ID                       : V_MPEG4/ISO/AVC Duration                       : 45 min 2 s Bit rate mode                  : Constant Bit rate                       : 7 740 kb/s Nominal bit rate               : 10 000 kb/s Width                          : 1 920 pixels Height                         : 1 040 pixels Display aspect ratio           : 1.85:1 Frame rate mode                : Constant Frame rate                     : 23.976 (24000/1001) FPS Color space                    : YUV Chroma subsampling             : 4:2:0 Bit depth                      : 8 bits Scan type                      : Progressive Bits/(Pixel*Frame)             : 0.162 Stream size                    : 2.44 GiB (97%) Default                        : Yes Forced                         : No Color range                    : Limited Color primaries                : BT.709 Transfer characteristics       : BT.709 Matrix coefficients            : BT.709  Audio ID                             : 2 Format                         : E-AC-3 Format/Info                    : Enhanced AC-3 Commercial name                : Dolby Digital Plus Codec ID                       : A_EAC3 Duration                       : 45 min 2 s Bit rate mode                  : Constant Bit rate                       : 224 kb/s Channel(s)                     : 2 channels Channel layout                 : L R Sampling rate                  : 48.0 kHz Frame rate                     : 31.250 FPS (1536 SPF) Compression mode               : Lossy Stream size                    : 72.2 MiB (3%) Language                       : Japanese Service kind                   : Complete Main Default                        : Yes Forced                         : No

会员专用连接: 【2022日影】[MagicStar] 夜念黎明 / ある夜、彼女は明け方を想う [WEBDL] [1080p] [AMZN]【生】

Magnet连接: magnet:?xt=urn:btih:T6LM3P3YPDPXYDLEEZWCBBXQIOZN32FE

Magnet连接typeII: magnet:?xt=urn:btih:9f96cdbf7878df7c0d64266c2086f043b2dde8a4

PikPak载点: 保存至pikpak ?

弹幕播放连接: ddplay:magnet:?xt=urn:btih:T6LM3P3YPDPXYDLEEZWCBBXQIOZN32FE 播放器官方下载地址

外部搜索连接: 从谷歌搜索资源种子


  • mkv[MagicStar] Aru Yoru, Kanojo wa Akegata wo Omou 2022 [WEBDL] [1080p] [AMZN]/Aru.Yoru.Kanojo.wa.Akegata.wo.Omou.2022.1080p.AMZN.WEB-DL.DDP2.0.H.264-MagicStar.mkv 2.5GB

***查看评论*** 请注意评论内容可能包含剧透

Processed in 0.001 second(s), 2 queries
Powered by tedmind.com Version: 1.8.1