动漫花园资源网logo

 
 

会员头像

发佈人:jackieliiy

订阅发佈人:

发佈组LOGO

所属发佈组:魔星字幕团

订阅发佈组:

【2021日影】[MagicStar] 青叶家的餐桌 电影版 / 青叶家のテーブル [WEBDL] [1080p] [AMZN]【生】【附日字】

简介: 

HD 1080p from Prime Video.
Use CBR bitrate mode. Japanese subtitles added.

alt text

alt text

General Unique ID                      : 125172782407238949884160927532481157966 (0x5E2B66A7055AC2B72896CA754A8E9B4E) Complete name                  : Aobake.no.Table.2021.1080p.AMZN.WEB-DL.DDP2.0.H.264-MagicStar.mkv Format                         : Matroska Format version                 : Version 4 File size                      : 5.85 GiB Duration                       : 1 h 44 min Overall bit rate mode          : Constant Overall bit rate               : 7 999 kb/s Encoded date                   : UTC 2022-08-06 03:48:46 Writing application            : mkvmerge v50.0.0 ('Awakenings') 64-bit Writing library                : libebml v1.4.0 + libmatroska v1.6.2 Cover                          : Yes Attachments                    : cover.png  Video ID                             : 1 Format                         : AVC Format/Info                    : Advanced Video Codec Format profile                 : [email protected] Format settings                : CABAC / 4 Ref Frames Format settings, CABAC         : Yes Format settings, Reference fra : 4 frames Codec ID                       : V_MPEG4/ISO/AVC Duration                       : 1 h 44 min Bit rate mode                  : Constant Bit rate                       : 7 771 kb/s Nominal bit rate               : 10 000 kb/s Width                          : 1 920 pixels Height                         : 1 080 pixels Display aspect ratio           : 16:9 Frame rate mode                : Constant Frame rate                     : 23.976 (24000/1001) FPS Color space                    : YUV Chroma subsampling             : 4:2:0 Bit depth                      : 8 bits Scan type                      : Progressive Bits/(Pixel*Frame)             : 0.156 Stream size                    : 5.69 GiB (97%) Default                        : Yes Forced                         : No Color range                    : Limited Color primaries                : BT.709 Transfer characteristics       : BT.709 Matrix coefficients            : BT.709  Audio ID                             : 2 Format                         : E-AC-3 Format/Info                    : Enhanced AC-3 Commercial name                : Dolby Digital Plus Codec ID                       : A_EAC3 Duration                       : 1 h 44 min Bit rate mode                  : Constant Bit rate                       : 224 kb/s Channel(s)                     : 2 channels Channel layout                 : L R Sampling rate                  : 48.0 kHz Frame rate                     : 31.250 FPS (1536 SPF) Compression mode               : Lossy Stream size                    : 168 MiB (3%) Language                       : Japanese Service kind                   : Complete Main Default                        : Yes Forced                         : No

会员专用连接: 【2021日影】[MagicStar] 青叶家的餐桌 电影版 / 青叶家のテーブル [WEBDL] [1080p] [AMZN]【生】【附日字】

Magnet连接: magnet:?xt=urn:btih:TD4DKL2NYWHHYLQ2FQ5WRWJ7ICR2X3CL

Magnet连接typeII: magnet:?xt=urn:btih:98f8352f4dc58e7c2e1a2c3b68d93f40a3abec4b

PikPak载点: 保存至pikpak ?

弹幕播放连接: ddplay:magnet:?xt=urn:btih:TD4DKL2NYWHHYLQ2FQ5WRWJ7ICR2X3CL 播放器官方下载地址

外部搜索连接: 从谷歌搜索资源种子


  • mkv[MagicStar] Aoba-ke no Table 2021 [WEBDL] [1080p] [AMZN] [JPN_SUB]/Aobake.no.Table.2021.1080p.AMZN.WEB-DL.DDP2.0.H.264-MagicStar.mkv 5.9GB
  • srt[MagicStar] Aoba-ke no Table 2021 [WEBDL] [1080p] [AMZN] [JPN_SUB]/Aobake.no.Table.2021.1080p.AMZN.WEB-DL.DDP2.0.H.264-MagicStar.srt 102.5KB

***查看评论*** 请注意评论内容可能包含剧透

Processed in 0.001 second(s), 2 queries
Powered by tedmind.com Version: 1.8.1